Friend Request 2016 x264 720p Esub BluRay Dual Audio English Hindi GOPISAHI torrent download

seeders: 426
leechers: 351
updated:
Added ago by PENDUDESI ***** in Movies
Torrent Downloaded 10 times.
Info Hash: 186F2840C3579C9A4AEB10A2755EA7BFDC075144


Torrent Files

Friend Request 2016 x264 720p Esub BluRay Dual Audio English Hindi GOPISAHI (Size: 589.7 MB)
  Friend Request 2016 x264 720p Esub BluRay Dual Audio English Hindi GOPISAHI 589.7 MB

Torrent Description



http://www.gopisahi.pw/

Format : Matroska
Format version : Version 4 / Version 2
File size : 590 MiB
Duration : 1 h 32 min
Overall bit rate : 894 kb/s
Movie name : Friend Request 2016 GOPISAHI

Video
Format : AVC
Format/Info : Advanced Video Codec
Codec ID : V_MPEG4/ISO/AVC
Duration : 1 h 32 min
Bit rate : 699 kb/s
Width : 1 280 pixels
Height : 544 pixels
Display aspect ratio : 2.35:1
Frame rate mode : Constant
Frame rate : 23.976 (24000/1001) FPS
Color space : YUV
Chroma subsampling : 4:2:0
Bit depth : 8 bits
Scan type : Progressive
Bits/(Pixel*Frame) : 0.042
Stream size : 461 MiB (78%)
Title : GOPISAHI
Writing library : x264 core 155 r2901 7d0ff22

Audio #1
Format : AAC
Duration : 1 h 32 min
Bit rate : 96.0 kb/s
Channel(s) : 2 channels
Channel positions : Front: L R
Sampling rate : 48.0 kHz
Frame rate : 46.875 FPS (1024 SPF)
Compression mode : Lossy
Delay relative to video : -64 ms
Stream size : 63.3 MiB (11%)
Title : GOPISAHI
Language : Hindi

Audio #2
Format : AAC
Duration : 1 h 32 min
Bit rate : 96.0 kb/s
Channel(s) : 2 channels
Channel positions : Front: L R
Sampling rate : 48.0 kHz
Frame rate : 46.875 FPS (1024 SPF)
Compression mode : Lossy
Delay relative to video : -64 ms
Stream size : 63.3 MiB (11%)
Title : GOPISAHI
Language : English

Text
Language : English




Related Torrents

torrent name size age seed leech
328.6 MB 2 minutes 56 313
4.4 GB 2 minutes 534 110
28.3 GB 2 minutes 694 168
762.7 MB 2 minutes 226 465
3.0 GB 7 minutes 689 112

Sharing Widget


Download torrent
589.7 MB
seeders:1214
leechers:386
Friend Request 2016 x264 720p Esub BluRay Dual Audio English Hindi GOPISAHI



To share this torrent use the code below and insert it into comments, status messages, forum posts or your signature.

Torrent: Friend Request 2016 x264 720p Esub BluRay Dual Audio English Hindi GOPISAHI

Comments

Latest Searches